Pendrive 360
Nosso Novo Blog Está Pronto.

www.pendrive-360.blogspot.com

Site e Fórum Criados Pelo Wellington silva


Noticia: Varios Jogos GOOD GRATIS 2016 ! Forum Criado Pelo Wellington Silva
 
InícioGaleriaFAQBuscarGruposRegistrar-seConectar-se
Últimos assuntos
» Resident Evil: Operation Raccoon City - Spec Ops Missions 2-4 DLC
Ter Jul 14, 2015 11:32 am por EDINALDO ALMEIDA

» Onde baixar Jogos on demand com perfil?
Sex Jun 19, 2015 7:05 pm por ricmaia

» Watch Dogs – XBOX 360
Seg Mar 02, 2015 7:13 am por Wellington

» FIFA 15 – XBOX 360
Seg Mar 02, 2015 7:11 am por Wellington

» [ FIXO ] Peça Aqui a Lista que Conquista que Deseja
Qui Dez 25, 2014 2:42 pm por cristiano vieira

» Assassins Creed 3 - ISO - Dublado em PT-BR
Dom Jul 20, 2014 11:21 am por tianocris

» Postando novos jogos GOD.
Dom Mar 30, 2014 10:08 pm por klima99

» PES 2013 - Torrent
Sex Mar 28, 2014 10:43 am por gleberson

» iXtreme Burner Max [TUTORIAS]
Seg Out 07, 2013 4:11 am por lipemv

Top dos mais postadores
Wellington
 
Thekiller2013
 
OBSCURE_Equipe_TK
 
JacksonCmadridsouza
 
MicaelStalin
 
PalaMan
 
cientista829
 
maanoo
 
Ali_Baba
 
carrasco
 
Quem está conectado
1 usuário online :: Nenhum usuário registrado, Nenhum Invisível e 1 Visitante

Nenhum

O recorde de usuários online foi de 60 em Qui Nov 15, 2012 6:36 pm
Estatísticas
Temos 4073 usuários registrados
O último usuário registrado atende pelo nome de Hellmans

Os nossos membros postaram um total de 398 mensagens em 164 assuntos

Compartilhe | 
 

 Jogos de Playstation no XBox 360

Ver o tópico anterior Ver o tópico seguinte Ir em baixo 
AutorMensagem
Wellington
Administrador VIP
Administrador VIP
avatar

Mensagens : 198
MS Points : 24476
Reputação : 0
Data de inscrição : 19/12/2011
Idade : 22
Localização : suzano

MensagemAssunto: Jogos de Playstation no XBox 360   Seg Dez 26, 2011 5:49 am

Jogos de Playstation no XBox 360

Ter aqueles velhos cd de playstation em sua casa para jogar no seu ps acabado é bom. Mas saber como convertê-los para BIN/CUE e poder jogá-los no emulador PCSXBox, é bem melhor. Esta operação não é complicada mas grande parte das pessoas não sabem como faze-la, veremos como acontece.

O que é BIN/CUE:

BIN/CUE são um formato de imagem do cd, que nem as imagens do Nero Burning Rom ou do tão falado ISO. Para criar essas imagens, há varia soluções, mas o uso do CDrwin , em particular porque é um software de trasncodificação bem conhecido.
CDrwin
http://www.4shared.com/file/151410982/a2fe0a8e/cdr40g-a.html

Vamos lá!

Insira o cd do ps que vc quer converter em BIN/CUE no seu drive de cd, inicie o CDRwin e clique em "Extract Disk/Tracks/Sectors

1. Quando a janela de extração se abrir, selecione o drive de cd com o cd do PS em "CD Reader", "Filename Image", coloque o nome q vc quiser sem as extensões , O CDRwin irá colocá-las sozinho.

2. Em "Reading Options", deixe com o formato RAW. Se isso não funcionar, seu drive não é compativel, será necessário q vc desmarque esta opção.

3. Error Recovery: ABORT

4. Jitter Correction: AUTO

5. Subcode Analysis: FULL(se não der certo, desmarque, seu drive não é compativel)

6. Read Retry Count: 15, para ver se você obtem mais erros na criação do BIN.

Com todas essas opções marcadas, clique em START e pronto!

Após poucos e longos minutos de espera, vc obtem no arquivo onde vc salvou suas duas imagens: nome_do_jogo.BIN e nome_do_jogo.CUE. Nosso exemplo é dinocrisis_tutorial.bin e dinocrisis_tutorial.cue. Abra p arquivo CUE com o bloco de notas(Botão Direito/Abrir Com/Escolher Programa/Bloco de Notas)
vc deverá ver linhas assim:

FILE "H INOCRISIS_TUTORIAL.BIN" BINARY
TRACK 01 MODE2/2352
INDEX 01 00:00:00
TRACK 02 AUDIO
PREGAP 00:02:00
INDEX 01 36:35:54

O problema do CDRwin, é que está marcado nesse CUE o caminho EXATO para o BIN. então transforme este caminho para manter só o nome do BIN, exemplo:

FILE "DINOCRISIS_TUTORIAL.BIN" BINARY
TRACK 01 MODE2/2352
INDEX 01 00:00:00
TRACK 02 AUDIO
PREGAP 00:02:00
INDEX 01 36:35:54
Salve o CUE, e vc está em posse de um completo e funcional par BIN/CUE para o seu XBOX

Há duas opções para jogar com o seu cd:

Pelo HD do XBOX: é só colocar os dois arquivos na pasta psxcds do PCSXBox e rodar o BIN no PCSXBox.

Em CD-RW/DVD-R: crie uma ISO do CUE e BIN com o Craxtion por exemplo, e queime tudo pelo nero. Com o seu CD no xbox, rode o PCSXBox(com o PCSXbox no seu HD), e pressione no direcional analogico direito para ver o conteudo do CD.
Voltar ao Topo Ir em baixo
Ver perfil do usuário http://pendrive360.forumeiros.com
 
Jogos de Playstation no XBox 360
Ver o tópico anterior Ver o tópico seguinte Voltar ao Topo 
Página 1 de 1
 Tópicos similares
-
» Como gravar jogos do playstation com o alcohol 120%
» Jogos de PlayStation poderão rodar em seu HTC em breve
» PlayStation Vita: Todos os jogos do PlayStation 3 poderão ser jogados através de conexão remota
» Ubi: “Você jogará como um templário em Assassin’s Creed Comet”(PlayStation 3, Xbox 360 e Wii U)
» PLUS de Maio: Jogos gratuitos para maio 2015 vazaram via Alemanha PS Blog

Permissão deste fórum:Você não pode responder aos tópicos neste fórum
Pendrive 360 :: NON JTAG :: Tutoriais-
Ir para:  
.........................................
Get your own Chat Box! Go Large!